伦敦上议院 (Lords of London)



伦敦上议院的剧情介绍 · · · · · ·
整理:https://bt8.me/ Lords.Of.London.2014.DVDRiP.XViD.AC3-FiRE
Format : AVI
Format/Info : Audio Video Interleave
File size : 1.36 GiB
Overall bit rate : 2 114 Kbps
Writing application : VirtualDubMod 1.5.10.2 (build 2542/release)
Writing library : VirtualDubMod build 2542/release
Video
ID : 0
Format : MPEG-4 Visual
Format profile : Advanced [email protected]
Format settings, BVOP : 2
Format settings, QPel : No
Format settings, GMC : No warppoints
Format settings, Matrix : Default (H.263)
Muxing mode : Packed bitstream
Codec ID : XVID
Codec ID/Hint : XviD
Bit rate : 1 720 Kbps
Width : 720 pixels
Height : 304 pixels
Display aspect ratio : 2.35:1
Frame rate : 23.976 fps
Color space : YUV
Chroma subsampling : 4:2:0
Bit depth : 8 bits
Scan type : Progressive
Compression mode : Lossy
Bits/(Pixel*Frame) : 0.314
Stream size : 1.11 GiB (81%)
Writing library : XviD 58
Audio
ID : 1
Format : AC-3
Format/Info : Audio Coding 3
Mode extension : CM (complete main)
Format settings, Endianness : Big
Codec ID : 2000
Bit rate mode : Constant
Bit rate : 384 Kbps
Channel(s) : 6 channels
Channel positions : Front: L C R, Side: L R, LFE
Sampling rate : 48.0 KHz
Bit depth : 16 bits
Stream size : 253 MiB (18%)
Alignment : Split accross interleaves
Interleave, duration : 42 ms (1.00 video frame)
Interleave, preload duration : 500 ms
Subs : eng) hardcoded where needed
Crime / Mystery / Thriller
Glen Murphy, Ray Winstone, Giovanni Capalbo
Ploy
Tony (Glen Murphy) is a notorious gangster with a big problem. He has woken up in an abandoned farmhouse,
with blood on his shirt, and no memory of how he got there. He stumbles into a small town and discovers he’s
in an Italian village that seems to be lost in time. There are no phones and, as a stranger, no one will talk
to him, except for one kind man, Francesco. Francesco tells of his grand-daughter, who is travelling Europe with
a British boy she has fallen in love with. The boy is a hustler and Francesco worries she is making a huge mistake.
Something in Francesco’s tale strikes a familiar chord with Tony, and he realises he did not end up here by accident. Once Tony
puts the pieces together, he has to choose between continuing his life as a gangster or sacrificing himself so others shall live.
http://www.imdb.com/title/tt1800337/

标签
伦敦上议院在线播放 · · · · · ·
玩命加载中...
伦敦上议院的资源下载 · · · · · ·
玩命加载中...
下载帮助
  • 本站建议下载使用专业BT软件下载电影,如:比特精灵,比特彗星,utorrent,迅雷等.
  • 本站只提供测试下载,24小时内请删除.
  • 本站所有资源完全免费,须用bt软件下载,人越多下载越快,把资源分享给您的朋友可以提高下载速度.
  • 720p和1080p资源大多无字幕需要去专业字幕站下载字幕后,外挂字幕观看.
您可能会喜欢 · · · · · ·
免责申明
  • 本站基于互联网自由分享,所有bt种子文件均来自互联网,分享于互联网,本站只作为一个bt种子暂存平台;
  • 本站服务器未保存任何影视、音乐、游戏等资源或文件,且本站并不属于bt种子的提供者、制作者、所有者,因此本站不承担任何法律责任!
  • 若有相关资源涉及您的版权或知识产权或其他利益,请及时联系我们:[email protected],确认后,我们会尽快删除。

TOP